Quick Browse
Movies
TV shows
Music
Games
Applications
Anime
Other

Latest Articles

Full Movies

The Noite com Danilo Gentili 2018 06 13 720p WEB-DL x264-Skylane77 mp4


    Seeders : 2      Leechers : 0


Note :

Please Update (Trackers Info) Before Downloading Torrents to See Updated Seeders And Leechers for Batter Download Speed.

Trackers List

Tracker NameLast CheckStatusSeedersLeechers
udp://tracker.leechers-paradise.org:6969/announce22 minutes agosuccess20
udp://tracker.coppersurfer.tk:6969/announce22 minutes agosuccess20
udp://tracker.internetwarriors.net:1337/announce22 minutes agosuccess20
udp://tracker.opentrackr.org:1337/announce22 minutes agosuccess20
udp://shadowshq.yi.org:6969/announce22 minutes agosuccess20
udp://eddie4.nl:6969/announce22 minutes agosuccess20
udp://tracker.pirateparty.gr:6969/announce22 minutes agosuccess20
udp://public.popcorn-tracker.org:6969/announce22 minutes agosuccess00
udp://mgtracker.org:6969/announce22 minutes agosuccess00
udp://tracker.mgtracker.org:2710/announce22 minutes agosuccess00
http://tracker.opentrackr.org/announce22 minutes agosuccess00
udp://tracker.zer0day.to:1337/announce22 minutes agosuccess00
udp://tracker.vanitycore.co:6969/announce22 minutes agosuccess00
udp://tracker.cypherpunks.ru:6969/announce22 minutes agosuccess00
udp://inferno.demonoid.pw:3418/announce22 minutes agosuccess00
udp://asnet.pw:2710/announce22 minutes agosuccess00
udp://tracker.xku.tv:6969/announce22 minutes agosuccess00
udp://9.rarbg.me:2710/announce22 minutes agosuccess00
udp://tracker.sktorrent.net:6969/announce22 minutes agosuccess00
udp://tracker.tiny-vps.com:6969/announce22 minutes agosuccess00
udp://9.rarbg.to:2710/announce22 minutes agosuccess00
udp://p4p.arenabg.ch:1337/announce22 minutes agosuccess00
udp://tracker.blackunicorn.xyz:6969/announce22 minutes agosuccess00
udp://glotorrents.pw:6969/announce22 minutes agosuccess00
udp://tracker.trackerfix.com:80/announce22 minutes agosuccess00
http://tracker2.wasabii.com.tw:6969/announce22 minutes agosuccess00
udp://explodie.org:6969/announce22 minutes agosuccess00
http://mgtracker.org:2710/announce22 minutes agosuccess00
udp://castradio.net:6969/announce22 minutes agosuccess00
http://bigfoot1942.sektori.org:6969/announce22 minutes agosuccess00
http://tracker.trackerfix.com/announce22 minutes agosuccess00




Torrent File Content (1 file)


     The.Noite.com.Danilo.Gentili.2018.06.13.720p.WEB-DL.x264-Skylane77.mp4 -
550.52 MB



Description



TV : Talk show : TV quality : Portuguese
Amaral, Dinei e Marcelinho Carioca

Entrevista com os ex-futebolistas Alexandre da Silva Mariano, Claudinei Alexandre Pires e Marcelo Pereira Surcin, mais conhecidos como Amaral, Dinei e Marcelinho Carioca; Ultraje a Rigor toca blues.



--
General
Complete name: The.Noite.com.Danilo.Gentili.2018.06.13.720p.WEB-DL.x264-Skylane77.mp4
Format: MPEG-4
Format profile: Base Media
Codec ID: isom (isom/iso2/avc1/mp41)
File size: 551 MiB
Duration: 59 min 34 s
Overall bit rate: 1 292 kb/s
Writing application: Lavf58.12.100

Video
ID: 1
Format: AVC
Format/Info: Advanced Video Codec
Format profile: [email protected]
Format settings: CABAC / 3 Ref Frames
Format settings, CABAC: Yes
Format settings, ReFrames: 3 frames
Codec ID: avc1
Codec ID/Info: Advanced Video Coding
Duration: 59 min 34 s
Bit rate: 1 158 kb/s
Width: 1 280 pixels
Height: 720 pixels
Display aspect ratio: 16:9
Frame rate mode: Constant
Frame rate: 30.000 FPS
Color space: YUV
Chroma subsampling: 4:2:0
Bit depth: 8 bits
Scan type: Progressive
Bits/(Pixel*Frame): 0.042
Stream size: 493 MiB (90%)
Color range: Limited
Color primaries: BT.709
Transfer characteristics: BT.709
Matrix coefficients: BT.709

Audio
ID: 2
Format: AAC
Format/Info: Advanced Audio Codec
Format profile: LC
Codec ID: mp4a-40-2
Duration: 59 min 34 s
Bit rate mode: Constant
Bit rate: 126 kb/s
Channel(s): 2 channels
Channel positions: Front: L R
Sampling rate: 44.1 kHz
Frame rate: 43.066 FPS (1024 SPF)
Compression mode: Lossy
Stream size: 53.5 MiB (10%)
Default: Yes
Alternate group: 1

Related torrents

Torrent NameAddedSizeSeedLeechHealth
2 months ago - in TV shows714.85 MB00
10 days ago - in TV shows626.86 MB20
11 days ago - in TV shows576.34 MB00
14 days ago - in TV shows676.34 MB20
15 days ago - in TV shows733.95 MB00



Comments (0 Comments)




Latest Searches